动漫花园资源网-动漫花园镜像站~動漫花園資源網 - 動漫愛好者的自由交流平台
热门火影恶魔高校魔法禁书目录

【2017夏日影】阿修罗少女 (ASURA GIRL) ~BLOOD-C 异闻~ / 阿修羅少女 (アシュラガール) ~BLOOD-C 異聞~ 2017 [WEBDL] [1080p] [AMZN]【生】

更新时间:2021-09-26 热度:7320

推荐比特球离线:>>点击下载,100%可完全离线

磁力二维码:

【2017夏日影】阿修罗少女 (ASURA GIRL) ~BLOOD-C 异闻~ / 阿修羅少女 (アシュラガール) ~BLOOD-C 異聞~ 2017 [WEBDL] [1080p] [AMZN]【生】磁力链接二维码

简介:


HD 1080p from Prime Video.
alt text
alt text

General Unique ID                      : 158116941465620011645172770062983461690 (0x76F43719349EC85E47E5C832DBC77B3A) Complete name                  : Asura.Girl.A.Blood-C.Tale.2017.1080p.AMZN.WEB-DL.DDP2.0.H.264-MagicStar.mkv Format                         : Matroska Format version                 : Version 4 File size                      : 3.44 GiB Duration                       : 1 h 29 min Overall bit rate               : 5 529 kb/s Encoded date                   : UTC 2021-09-25 23:35:03 Writing application            : mkvmerge v50.0.0 ('Awakenings') 64-bit Writing library                : libebml v1.4.0 + libmatroska v1.6.2 Cover                          : Yes Attachments                    : cover.png  Video ID                             : 1 Format                         : AVC Format/Info                    : Advanced Video Codec Format profile                 : [email protected] Format settings                : CABAC / 4 Ref Frames Format settings, CABAC         : Yes Format settings, Reference fra : 4 frames Codec ID                       : V_MPEG4/ISO/AVC Duration                       : 1 h 29 min Bit rate                       : 5 301 kb/s Width                          : 1 920 pixels Height                         : 1 040 pixels Display aspect ratio           : 1.85:1 Frame rate mode                : Constant Frame rate                     : 24.000 FPS Color space                    : YUV Chroma subsampling             : 4:2:0 Bit depth                      : 8 bits Scan type                      : Progressive Bits/(Pixel*Frame)             : 0.111 Stream size                    : 3.30 GiB (96%) Default                        : Yes Forced                         : No Color range                    : Limited Color primaries                : BT.709 Transfer characteristics       : BT.709 Matrix coefficients            : BT.709  Audio ID                             : 2 Format                         : E-AC-3 Format/Info                    : Enhanced AC-3 Commercial name                : Dolby Digital Plus Codec ID                       : A_EAC3 Duration                       : 1 h 29 min Bit rate mode                  : Constant Bit rate                       : 224 kb/s Channel(s)                     : 2 channels Channel layout                 : L R Sampling rate                  : 48.0 kHz Frame rate                     : 31.250 FPS (1536 SPF) Compression mode               : Lossy Stream size                    : 143 MiB (4%) Language                       : Japanese Service kind                   : Complete Main Default                        : Yes Forced                         : No

资源大小:

3.4GB

资源数量:

1

种子搜索:

种子转换

电驴地址:

ed2k://0

Copyright 2017

动漫花园 | 极影动漫 | 动漫花园吧