动漫花园资源网-动漫花园镜像站~動漫花園資源網 - 動漫愛好者的自由交流平台
热门火影恶魔高校魔法禁书目录

[MagicStar] 东京、爱与恋 / 東京、愛だの、恋だの EP04 [WEBDL] [1080p] [PARAVI]【生】

更新时间:2021-09-26 热度:4197

推荐比特球离线:>>点击下载,100%可完全离线

磁力二维码:

[MagicStar] 东京、爱与恋 / 東京、愛だの、恋だの EP04 [WEBDL] [1080p] [PARAVI]【生】磁力链接二维码

简介:


HD 1080p from Paravi. Paravi Original Series.
alt text
alt text

General Unique ID                      : 280588602193665685313842647495816401431 (0xD317662B8A022FB5CE449C0FCF665217) Complete name                  : Tokyo.Ai.dano.Koi.dano.EP04.1080p.PARAVI.WEB-DL.AAC2.0.H.264-MagicStar.mkv Format                         : Matroska Format version                 : Version 4 File size                      : 1.26 GiB Duration                       : 30 min 46 s Overall bit rate               : 5 871 kb/s Encoded date                   : UTC 2021-09-25 23:40:17 Writing application            : mkvmerge v50.0.0 ('Awakenings') 64-bit Writing library                : libebml v1.4.0 + libmatroska v1.6.2 Cover                          : Yes Attachments                    : cover.png  Video ID                             : 1 Format                         : AVC Format/Info                    : Advanced Video Codec Format profile                 : [email protected] Format settings                : CABAC / 3 Ref Frames Format settings, CABAC         : Yes Format settings, Reference fra : 3 frames Codec ID                       : V_MPEG4/ISO/AVC Duration                       : 30 min 46 s Bit rate mode                  : Constant Bit rate                       : 5 983 kb/s Width                          : 1 920 pixels Height                         : 1 080 pixels Display aspect ratio           : 16:9 Frame rate mode                : Constant Frame rate                     : 23.976 (24000/1001) FPS Color space                    : YUV Chroma subsampling             : 4:2:0 Bit depth                      : 8 bits Scan type                      : Progressive Bits/(Pixel*Frame)             : 0.120 Stream size                    : 1.25 GiB (99%) Default                        : Yes Forced                         : No Color range                    : Limited Color primaries                : BT.709 Transfer characteristics       : BT.709 Matrix coefficients            : BT.709  Audio ID                             : 2 Format                         : AAC LC Format/Info                    : Advanced Audio Codec Low Complexity Codec ID                       : A_AAC-2 Duration                       : 30 min 46 s Bit rate                       : 63.9 kb/s Channel(s)                     : 2 channels Channel layout                 : L R Sampling rate                  : 48.0 kHz Frame rate                     : 46.875 FPS (1024 SPF) Compression mode               : Lossy Stream size                    : 14.1 MiB (1%) Language                       : Japanese Default                        : Yes Forced                         : No

资源大小:

1.3GB

资源数量:

1

种子搜索:

种子转换

电驴地址:

ed2k://0

Copyright 2017

动漫花园 | 极影动漫 | 动漫花园吧