动漫花园资源网-动漫花园镜像站~動漫花園資源網 - 動漫愛好者的自由交流平台
热门火影恶魔高校魔法禁书目录

[MagicStar] 如果合您的耳朵的话。 / お耳に合いましたら。 EP11 [WEBDL] [1080p] [AMZN]【生】

更新时间:2021-09-26 热度:8999

推荐比特球离线:>>点击下载,100%可完全离线

磁力二维码:

[MagicStar] 如果合您的耳朵的话。 / お耳に合いましたら。 EP11 [WEBDL] [1080p] [AMZN]【生】磁力链接二维码

简介:


HD 1080p from Prime Video.
alt text
alt text

General Unique ID                      : 339232808622889788017901120037602440424 (0xFF35DCC7DACDFBC3A462BAAF886BB4E8) Complete name                  : Omimi.ni.Aimashitara.EP11.1080p.AMZN.WEB-DL.DDP2.0.H.264-MagicStar.mkv Format                         : Matroska Format version                 : Version 4 File size                      : 809 MiB Duration                       : 24 min 0 s Overall bit rate               : 4 710 kb/s Encoded date                   : UTC 2021-09-25 23:18:15 Writing application            : mkvmerge v50.0.0 ('Awakenings') 64-bit Writing library                : libebml v1.4.0 + libmatroska v1.6.2  Video ID                             : 1 Format                         : AVC Format/Info                    : Advanced Video Codec Format profile                 : [email protected] Format settings                : CABAC / 4 Ref Frames Format settings, CABAC         : Yes Format settings, Reference fra : 4 frames Codec ID                       : V_MPEG4/ISO/AVC Duration                       : 24 min 0 s Bit rate                       : 4 484 kb/s Width                          : 1 920 pixels Height                         : 1 080 pixels Display aspect ratio           : 16:9 Frame rate mode                : Constant Frame rate                     : 23.976 (24000/1001) FPS Color space                    : YUV Chroma subsampling             : 4:2:0 Bit depth                      : 8 bits Scan type                      : Progressive Bits/(Pixel*Frame)             : 0.090 Stream size                    : 770 MiB (95%) Default                        : Yes Forced                         : No Color range                    : Limited Color primaries                : BT.709 Transfer characteristics       : BT.709 Matrix coefficients            : BT.709  Audio ID                             : 2 Format                         : E-AC-3 Format/Info                    : Enhanced AC-3 Commercial name                : Dolby Digital Plus Codec ID                       : A_EAC3 Duration                       : 24 min 0 s Bit rate mode                  : Constant Bit rate                       : 224 kb/s Channel(s)                     : 2 channels Channel layout                 : L R Sampling rate                  : 48.0 kHz Frame rate                     : 31.250 FPS (1536 SPF) Compression mode               : Lossy Stream size                    : 38.5 MiB (5%) Language                       : Japanese Service kind                   : Complete Main Default                        : Yes Forced                         : No

资源大小:

808.8MB

资源数量:

1

种子搜索:

种子转换

电驴地址:

ed2k://0

Copyright 2017

动漫花园 | 极影动漫 | 动漫花园吧