动漫花园资源网-动漫花园镜像站~動漫花園資源網 - 動漫愛好者的自由交流平台
热门火影恶魔高校魔法禁书目录

[MagicStar] 可以跟着去你家吗? 最终回 / 家、ついて行ってイイですか? EP07 END [WEBDL] [1080p] [PARAVI]【生】

更新时间:2021-09-26 热度:1202

推荐比特球离线:>>点击下载,100%可完全离线

磁力二维码:

[MagicStar] 可以跟着去你家吗? 最终回 / 家、ついて行ってイイですか? EP07 END [WEBDL] [1080p] [PARAVI]【生】磁力链接二维码

简介:


HD 1080p from Paravi.
alt text
alt text

General Unique ID                      : 220147441897507470097015229236754034072 (0xA59EDAE4C1FA4C5E1A335F4F2890AD98) Complete name                  : Ie.Tsuite.Itte.Ii.Desuka.EP07.1080p.PARAVI.WEB-DL.AAC2.0.H.264-MagicStar.mkv Format                         : Matroska Format version                 : Version 4 File size                      : 1.01 GiB Duration                       : 24 min 0 s Overall bit rate               : 6 007 kb/s Encoded date                   : UTC 2021-09-25 23:38:49 Writing application            : mkvmerge v50.0.0 ('Awakenings') 64-bit Writing library                : libebml v1.4.0 + libmatroska v1.6.2 Cover                          : Yes Attachments                    : cover.png  Video ID                             : 1 Format                         : AVC Format/Info                    : Advanced Video Codec Format profile                 : [email protected] Format settings                : CABAC / 3 Ref Frames Format settings, CABAC         : Yes Format settings, Reference fra : 3 frames Codec ID                       : V_MPEG4/ISO/AVC Duration                       : 24 min 0 s Bit rate mode                  : Constant Bit rate                       : 5 995 kb/s Width                          : 1 920 pixels Height                         : 1 080 pixels Display aspect ratio           : 16:9 Frame rate mode                : Constant Frame rate                     : 29.970 (29970/1000) FPS Original frame rate            : 29.970 (30000/1001) FPS Color space                    : YUV Chroma subsampling             : 4:2:0 Bit depth                      : 8 bits Scan type                      : Progressive Bits/(Pixel*Frame)             : 0.096 Stream size                    : 1 019 MiB (99%) Default                        : Yes Forced                         : No Color range                    : Limited Color primaries                : BT.709 Transfer characteristics       : BT.709 Matrix coefficients            : BT.709  Audio ID                             : 2 Format                         : AAC LC Format/Info                    : Advanced Audio Codec Low Complexity Codec ID                       : A_AAC-2 Duration                       : 24 min 0 s Bit rate                       : 64.0 kb/s Channel(s)                     : 2 channels Channel layout                 : L R Sampling rate                  : 48.0 kHz Frame rate                     : 46.875 FPS (1024 SPF) Compression mode               : Lossy Stream size                    : 11.0 MiB (1%) Language                       : Japanese Default                        : Yes Forced                         : No

资源大小:

1.0GB

资源数量:

1

种子搜索:

种子转换

电驴地址:

ed2k://0

Copyright 2017

动漫花园 | 极影动漫 | 动漫花园吧