动漫花园资源网-动漫花园镜像站~動漫花園資源網 - 動漫愛好者的自由交流平台
热门火影恶魔高校魔法禁书目录

【2022日影】[MagicStar] 鸢 / とんび [WEBDL] [1080p] [AMZN]【生】

更新时间:2022-08-05 热度:2075

推荐比特球离线:>>点击下载,100%可完全离线

磁力二维码:

【2022日影】[MagicStar] 鸢 / とんび [WEBDL] [1080p] [AMZN]【生】磁力链接二维码

简介:

簡介: 

HD 1080p from Prime Video.
Use CBR bitrate mode.

alt text
alt text

General Unique ID                      : 231325022590696301930759020429857438941 (0xAE07942B89E721C58487DF0BFE52BCDD) Complete name                  : Tonbi.2022.1080p.AMZN.WEB-DL.DDP5.1.H.264-MagicStar.mkv Format                         : Matroska Format version                 : Version 4 File size                      : 8.84 GiB Duration                       : 2 h 19 min Overall bit rate mode          : Constant Overall bit rate               : 9 090 kb/s Encoded date                   : UTC 2022-08-05 11:00:32 Writing application            : mkvmerge v50.0.0 ('Awakenings') 64-bit Writing library                : libebml v1.4.0 + libmatroska v1.6.2 Cover                          : Yes Attachments                    : cover.png  Video ID                             : 1 Format                         : AVC Format/Info                    : Advanced Video Codec Format profile                 : [email protected] Format settings                : CABAC / 4 Ref Frames Format settings, CABAC         : Yes Format settings, Reference fra : 4 frames Codec ID                       : V_MPEG4/ISO/AVC Duration                       : 2 h 19 min Bit rate mode                  : Constant Bit rate                       : 8 448 kb/s Nominal bit rate               : 10 000 kb/s Width                          : 1 920 pixels Height                         : 1 040 pixels Display aspect ratio           : 1.85:1 Frame rate mode                : Constant Frame rate                     : 23.976 (24000/1001) FPS Color space                    : YUV Chroma subsampling             : 4:2:0 Bit depth                      : 8 bits Scan type                      : Progressive Bits/(Pixel*Frame)             : 0.176 Stream size                    : 8.22 GiB (93%) Default                        : Yes Forced                         : No Color range                    : Limited Color primaries                : BT.709 Transfer characteristics       : BT.709 Matrix coefficients            : BT.709  Audio ID                             : 2 Format                         : E-AC-3 Format/Info                    : Enhanced AC-3 Commercial name                : Dolby Digital Plus Codec ID                       : A_EAC3 Duration                       : 2 h 19 min Bit rate mode                  : Constant Bit rate                       : 640 kb/s Channel(s)                     : 6 channels Channel layout                 : L R C LFE Ls Rs Sampling rate                  : 48.0 kHz Frame rate                     : 31.250 FPS (1536 SPF) Compression mode               : Lossy Stream size                    : 638 MiB (7%) Language                       : Japanese Service kind                   : Complete Main Default                        : Yes Forced                         : No

资源大小:

8.8GB

资源数量:

1

种子搜索:

种子转换

电驴地址:

ed2k://0

Copyright 2017

动漫花园 | 极影动漫 | 动漫花园吧