[xyx98]玛丽与魔女之花/Mary to Majo no Hana/メアリと魔女の花[BDrip][1920x1038][hevc-yuv420p10 flac]

资源大小:

7.0GB

资源数量:

1

种子地址:

种子转换

电驴地址:

暂无

磁力二维码:

[xyx98]玛丽与魔女之花/Mary to Majo no Hana/メアリと魔女の花[BDrip][1920x1038][hevc-yuv420p10 flac]磁力链接二维码

简介:

簡介: 

 

生长在田舎町的11岁的女孩玛丽
某日取到每隔7年才盛开一次、被称之为「夜间飞行」的花朵后,身上产生可使用仅限于一晚时间的魔力。
随后玛丽靠着获得来的神秘力量前往耸立在云海内的魔女国度,展开了一场大冒险。


mediainfo:

General
Unique ID                   : 288205479538334352710770315692262112809 (0xD8D25B37A6FA7E5A9DE93CB62B893E29)
Complete name               : I:animes玛丽与魔女之花玛丽与魔女之花.mkv
Format                      : Matroska
Format version              : Version 4
File size                   : 3.42 GiB
Duration                    : 1 h 42 min
Overall bit rate mode       : Variable
Overall bit rate            : 4 757 kb/s
Movie name                  : 玛丽与魔女之花
Encoded date                : UTC 2018-11-07 06:45:20
Writing application         : mkvmerge v28.2.0 ('The Awakening') 64-bit
Writing library             : libebml v1.3.6 + libmatroska v1.4.9
 
Video
ID                          : 1
Format                      : HEVC
Format/Info                 : High Efficiency Video Coding
Format profile              : Main 10@L5@Main
Codec ID                    : V_MPEGH/ISO/HEVC
Duration                    : 1 h 42 min
Bit rate                    : 3 263 kb/s
Width                       : 1 920 pixels
Height                      : 1 038 pixels
Display aspect ratio        : 1.85:1
Frame rate mode             : Constant
Frame rate                  : 23.976 (24000/1001) FPS
Color space                 : YUV
Chroma subsampling          : 4:2:0
Bit depth                   : 10 bits
Bits/(Pixel*Frame)          : 0.068
Stream size                 : 2.34 GiB (69%)
Language                    : Japanese
Default                     : Yes
Forced                      : No
 
Audio
ID                          : 2
Format                      : FLAC
Format/Info                 : Free Lossless Audio Codec
Codec ID                    : A_FLAC
Duration                    : 1 h 42 min
Bit rate mode               : Variable
Bit rate                    : 1 472 kb/s
Channel(s)                  : 2 channels
Channel layout              : L R
Sampling rate               : 48.0 kHz
Frame rate                  : 11.719 FPS (4096 SPF)
Bit depth                   : 24 bits
Compression mode            : Lossless
Delay relative to video     : 1 ms
Stream size                 : 1.06 GiB (31%)
Writing library             : CUETools 2.1.6
Language                    : Japanese
Default                     : Yes
Forced                      : No
 
Text #1
ID                          : 3
Format                      : PGS
Muxing mode                 : zlib
Codec ID                    : S_HDMV/PGS
Codec ID/Info               : Picture based subtitle format used on BDs/HD-DVDs
Duration                    : 1 h 41 min
Bit rate                    : 28.3 kb/s
Count of elements           : 3195
Stream size                 : 20.7 MiB (1%)
Title                       : Japanese
Language                    : Japanese
Default                     : No
Forced                      : No
 
Text #2
ID                          : 4
Format                      : PGS
Muxing mode                 : zlib
Codec ID                    : S_HDMV/PGS
Codec ID/Info               : Picture based subtitle format used on BDs/HD-DVDs
Duration                    : 1 h 41 min
Bit rate                    : 24.7 kb/s
Count of elements           : 2028
Stream size                 : 18.0 MiB (1%)
Title                       : English
Language                    : English
Default                     : No
Forced                      : No
 
Menu
00:00:00.000                : en:Chapter 1
00:02:46.374                : en:Chapter 2
00:04:12.585                : en:Chapter 3
00:06:44.695                : en:Chapter 4
00:10:22.913                : en:Chapter 5
00:15:35.601                : en:Chapter 6
00:17:37.931                : en:Chapter 7
00:18:45.666                : en:Chapter 8
00:20:54.753                : en:Chapter 9
00:25:37.911                : en:Chapter 10
00:29:44.073                : en:Chapter 11
00:36:10.042                : en:Chapter 12
00:42:03.604                : en:Chapter 13
00:44:16.737                : en:Chapter 14
00:48:06.717                : en:Chapter 15
00:51:04.144                : en:Chapter 16
00:56:40.021                : en:Chapter 17
01:00:12.692                : en:Chapter 18
01:05:13.868                : en:Chapter 19
01:12:01.191                : en:Chapter 20
01:13:22.648                : en:Chapter 21
01:16:42.931                : en:Chapter 22
01:21:08.905                : en:Chapter 23
01:23:39.013                : en:Chapter 24
01:27:32.372                : en:Chapter 25
01:34:52.353                : en:Chapter 26
01:37:38.352                : en:Chapter 27