动漫花园资源网-动漫花园镜像站~動漫花園資源網 - 動漫愛好者的自由交流平台
热门火影恶魔高校魔法禁书目录

[MagicStar] 新・信长公记 ~同学是战国武将~ / 新・信長公記 ~クラスメイトは戦国武将~ EP04 [WEBDL] [1080p] [HULU]【生】【附日字】

更新时间:2022-08-16 热度:7575

推荐比特球离线:>>点击下载,100%可完全离线

磁力二维码:

[MagicStar] 新・信长公记 ~同学是战国武将~ / 新・信長公記 ~クラスメイトは戦国武将~ EP04 [WEBDL] [1080p] [HULU]【生】【附日字】磁力链接二维码

简介:

簡介: 

HD 1080p from HULU JAPAN.
alt text
alt text

General Unique ID                      : 217251768436366208652722595199844727874 (0xA3712B2B5A6DEC840670E869FDD5BC42) Complete name                  : Shin.Shinchou.Kouki.Classmate.wa.Sengoku.Bushou.EP04.1080p.HULU.WEB-DL.AAC2.0.H.264-MagicStar.mkv Format                         : Matroska Format version                 : Version 4 File size                      : 1.24 GiB Duration                       : 46 min 8 s Overall bit rate               : 3 839 kb/s Encoded date                   : UTC 2022-08-15 08:21:02 Writing application            : mkvmerge v50.0.0 ('Awakenings') 64-bit Writing library                : libebml v1.4.0 + libmatroska v1.6.2 Cover                          : Yes Attachments                    : cover.png  Video ID                             : 1 Format                         : AVC Format/Info                    : Advanced Video Codec Format profile                 : [email protected] Format settings                : CABAC / 4 Ref Frames Format settings, CABAC         : Yes Format settings, Reference fra : 4 frames Codec ID                       : V_MPEG4/ISO/AVC Duration                       : 46 min 8 s Bit rate                       : 3 711 kb/s Width                          : 1 920 pixels Height                         : 1 080 pixels Display aspect ratio           : 16:9 Frame rate mode                : Constant Frame rate                     : 29.970 (29970/1000) FPS Original frame rate            : 29.970 (30000/1001) FPS Color space                    : YUV Chroma subsampling             : 4:2:0 Bit depth                      : 8 bits Scan type                      : Progressive Bits/(Pixel*Frame)             : 0.060 Stream size                    : 1.20 GiB (97%) Default                        : Yes Forced                         : No Color range                    : Limited Color primaries                : BT.709 Transfer characteristics       : BT.709 Matrix coefficients            : BT.709  Audio ID                             : 2 Format                         : AAC LC Format/Info                    : Advanced Audio Codec Low Complexity Codec ID                       : A_AAC-2 Duration                       : 46 min 8 s Bit rate                       : 125 kb/s Channel(s)                     : 2 channels Channel layout                 : L R Sampling rate                  : 48.0 kHz Frame rate                     : 46.875 FPS (1024 SPF) Compression mode               : Lossy Stream size                    : 41.4 MiB (3%) Language                       : Japanese Default                        : Yes Forced                         : No

资源大小:

1.2GB

资源数量:

1

种子搜索:

种子转换

电驴地址:

ed2k://0

Copyright 2017

动漫花园 | 极影动漫 | 动漫花园吧